设为首页收藏本站
返回列表 发新帖

蔡琴 金片子1 SACD-ISO+DFF

  [复制链接]

该用户从未签到

5

主题

18

帖子

194

积分

初遇大法

Rank: 2

积分
194
发表于 2019-1-9 17:56:07  | 显示全部楼层 | 阅读模式
本帖最后由 江南 于 2019-1-10 10:02 编辑

蔡琴 金片子1 SACD-ISO+DFF

1.jpg

2.jpg

4.jpg

5.jpg


3.png

专辑名:蔡琴 金片子 壹 格式:SACD 2.0


中文名称:金片子Ⅰ天涯歌女SACD
专辑歌手:蔡琴
格式:SACD 2.0
策划制作:倍特音乐
发行公司:中录德加拉家庭娱乐有限公司
出版公司:中国录音录像出版总社
专辑编码:BM-708003
发行时间:2002年
容量:1.89G


   专辑介绍:
    此碟完全循着“老歌”这条既有的成功路线而去。专辑以“纸醉金迷下的经典,繁华落尽后的永恒”为诉求,以爵士方式将老上海时代的周旋、白光、李香兰、吴莺莺等人的经典歌曲做新鲜改编,也将蔡琴极富怀旧感的歌声,令人骨头酥软的迷人风韵,表现的淋漓尽致。
有别于其他流行歌曲唱片,这张“不插电”的《金片子》为追求爵士乐绝对即兴的现场活生感,并不是以“先录伴奏,再配人声”的多声轨合成的方式制作,而是 采取歌手和乐手在录音室同步演出,一次收录的灌录形式。事实上,蔡琴这张《金片子》之所以选择香港做录音地,是因为那里长年聚集了许多来自世界各地的“鬼佬”乐手,经过短暂的讨论和稍事练习,他们就和蔡琴形成了相当的默契,极其精彩地将30年代的上海老歌予了爵士BOSSA、NOVA以及拉丁等多样的曲风。
     此张专辑的母带在香港A VON录音室以24BIT数码方式收录,加入SACD编码后,母带送交美国著名的OCEAN VIEW DIGITAL做MASTERING处理,最后在压制成唱片,完全是以发烧录音的方式对待。特别值得一提的是,唱片公司更费心找来AKG C-12VR真空麦克风,单独捕捉蔡琴磁性动人的嗓音,熟悉蔡琴的发烧在听过《金片子》后,都会同意:论音效,这是蔡琴迄今所有唱片之最!蔡琴委婉有致的嗓音不再像以前《蔡琴老歌》中那样只是厚厚一片,低沉丰润中有着特别的透明感和形体感,完全“不插电”的乐器伴奏,结像力非常凝聚饱满,质感清晰立体,敲击和弹拨的轻重力度,音色变化均被极细腻地捕捉了下来。


专辑曲目:


01.醉在你的怀中
02.晚霞
03.神秘女郎
04.好春宵
05.我有一段情
06.夜来香
07.家家有本难念的经
08.三年
09.等着你回来
10.永远的微笑
11.好预兆
12.天涯歌女




----------------------------------------------------------------------------
Analyzed: Cai Qin / Golden Voice I
----------------------------------------------------------------------------

DR         Peak         RMS     Duration Track
--------------------------------------------------------------------------------
DR8       -5.13 dB   -17.37 dB  2:55     ?-Cai Qin - Golden Voice I
DR8       -5.88 dB   -17.22 dB  3:32     ?-Cai Qin - Golden Voice I
DR6       -6.33 dB   -16.76 dB  3:35     ?-Cai Qin - Golden Voice I
DR6       -5.72 dB   -14.98 dB  4:00     ?-Cai Qin - Golden Voice I
DR8       -6.26 dB   -18.75 dB  4:36     ?-Cai Qin - Golden Voice I
DR6       -6.28 dB   -17.15 dB  4:14     ?-Cai Qin - Golden Voice I
DR8       -5.01 dB   -17.61 dB  3:14     ?-Cai Qin - Golden Voice I
DR7       -6.17 dB   -17.61 dB  4:44     ?-Cai Qin - Golden Voice I
DR7       -6.12 dB   -16.86 dB  2:32     ?-Cai Qin - Golden Voice I
DR7       -6.28 dB   -16.98 dB  4:21     ?-Cai Qin - Golden Voice I
DR6       -6.19 dB   -15.29 dB  3:09     ?-Cai Qin - Golden Voice I
DR8       -6.31 dB   -18.83 dB  4:57     ?-Cai Qin - Golden Voice I
----------------------------------------------------------------------------

Number of tracks: 12
Maximum peak difference (-5.01 dB - -6.33 dB): 1.32 dB

Official DR value (Song Mode): DR7



百度网盘:

DFF文件链接:

游客,如果您要查看本帖隐藏内容请回复,资源区回复自动扣除3嗨币,您也可以充值嗨币



ISO文件链接:

游客,如果您要查看本帖隐藏内容请回复,资源区回复自动扣除3嗨币,您也可以充值嗨币


回复

使用道具 举报

  • TA的每日心情
    慵懒
    2018-11-26 23:57
  • 签到天数: 1 天

    [LV.1]入坑不久

    0

    主题

    21

    帖子

    126

    积分

    初遇大法

    Rank: 2

    积分
    126
    发表于 2019-1-9 22:14:10  | 显示全部楼层
    看看,应该不错,谢谢分享
    回复

    使用道具 举报

    该用户从未签到

    5

    主题

    18

    帖子

    194

    积分

    初遇大法

    Rank: 2

    积分
    194
    发表于 2019-1-10 10:13:26  | 显示全部楼层
    xujinbiyin 发表于 2019-1-9 22:14
    看看,应该不错,谢谢分享

    听起来很不错,还有一张2,有空再传。

    Disc.jpg front.jpg

    回复

    使用道具 举报

  • TA的每日心情
    慵懒
    昨天 08:32
  • 签到天数: 110 天

    [LV.6]初遇黑磚

    32

    主题

    324

    帖子

    1333

    积分

    索之狂热者

    Rank: 6Rank: 6

    积分
    1333
    发表于 2019-1-11 08:37:58  | 显示全部楼层
    祝HI-RES越来越兴旺!
    回复

    使用道具 举报

  • TA的每日心情
    奋斗
    2019-1-11 11:25
  • 签到天数: 1 天

    [LV.1]入坑不久

    0

    主题

    4

    帖子

    30

    积分

    何为大法?

    Rank: 1

    积分
    30
    发表于 2019-1-11 11:18:56  | 显示全部楼层
    不错的音乐
    回复

    使用道具 举报

    该用户从未签到

    0

    主题

    9

    帖子

    126

    积分

    Hi-Res联盟会员

    Rank: 8Rank: 8

    积分
    126
    发表于 2019-1-11 16:20:00  | 显示全部楼层
    这个资源太强大啦
    回复

    使用道具 举报

  • TA的每日心情
    开心
    2019-1-11 06:22
  • 签到天数: 1 天

    [LV.1]入坑不久

    0

    主题

    4

    帖子

    19

    积分

    何为大法?

    Rank: 1

    积分
    19
    发表于 2019-1-11 18:33:36  | 显示全部楼层
    支持论坛发扬光大
    回复

    使用道具 举报

    该用户从未签到

    0

    主题

    26

    帖子

    392

    积分

    恋上索尼

    Rank: 3Rank: 3

    积分
    392
    发表于 2019-1-12 00:33:24  | 显示全部楼层

    谢谢楼主分享
    回复

    使用道具 举报

  • TA的每日心情
    开心
    2019-1-12 00:58
  • 签到天数: 2 天

    [LV.1]入坑不久

    0

    主题

    81

    帖子

    525

    积分

    深爱大法

    Rank: 4

    积分
    525
    发表于 2019-1-12 00:55:50  | 显示全部楼层
    看看,应该不错,谢谢分享
    回复

    使用道具 举报

    该用户从未签到

    0

    主题

    25

    帖子

    223

    积分

    恋上索尼

    Rank: 3Rank: 3

    积分
    223
    发表于 2019-1-12 05:25:27  | 显示全部楼层
    谢谢分享
    回复

    使用道具 举报

    发表回复

    *滑动验证:
    您需要登录后才可以回帖 登录 | 立即注册

    本版积分规则

    关闭

    站长推荐上一条 /1 下一条

    关于我们
    关于本站
    关于站长
    联系我们
    帮助中心
    会员中心
    会员特权
    版权声明
    资源导航
    高解析度资源
    稀有母带资源
    其他格式资源
    关注我们
    站长围脖
    站长空间
    官方微信
    快速回复 返回顶部 返回列表